[Mini-HD] The Concubine Queen [720p][Audio AC3 5.1:En][Soundtrack ไม่มีบรรยาย][Sub:No][2.72GB]





ดาวน์โหลดหนังฟรี / Free Movie Hits






เรื่องย่อ
                เรื่องราวของจักรพรรดิ์ ซึ่งมีทุกสิ่งยกเว้นแต่ใจของเธอคนนี้

General
Complete name: Q.seed-loadmovie.blogspot.com.mp4
Format : MPEG-4
Format profile : Base Media / Version 2
Codec ID : mp42
File size: 2.72 GiB
Duration : 2h 2mn
Overall bit rate mode: Variable
Overall bit rate : 3 181 Kbps
Encoded date : UTC 2012-07-18 06:45:47
Tagged date: UTC 2012-07-18 06:45:47

Video
ID : 1
Format : AVC
Format/Info: Advanced Video Codec
Format profile : Baseline@L3.1
Format settings, CABAC : No
Format settings, ReFrames: 3 frames
Codec ID : avc1
Codec ID/Info: Advanced Video Coding
Duration : 2h 2mn
Bit rate : 2 989 Kbps
Width: 1 280 pixels
Height : 720 pixels
Display aspect ratio : 16:9
Frame rate mode: Constant
Frame rate : 29.970 fps
Standard : NTSC
Color space: YUV
Chroma subsampling : 4:2:0
Bit depth: 8 bits
Scan type: Progressive
Bits/(Pixel*Frame) : 0.108
Stream size: 2.56 GiB (94%)
Language : English
Encoded date : UTC 2012-07-18 06:45:47
Tagged date: UTC 2012-07-18 06:45:47

Audio
ID : 2
Format : AAC
Format/Info: Advanced Audio Codec
Format profile : LC
Codec ID : 40
Duration : 2h 2mn
Source duration: 2h 2mn
Bit rate mode: Variable
Bit rate : 192 Kbps
Maximum bit rate : 294 Kbps
Channel(s) : 2 channels
Channel positions: Front: L R
Sampling rate: 44.1 KHz
Compression mode : Lossy
Stream size: 166 MiB (6%)
Source stream size : 166 MiB (6%)
Language : English
Encoded date : UTC 2012-07-18 06:45:47
Tagged date: UTC 2012-07-18 06:45:47














PART/ 200MB MKV



PART 1    PART 2    PART 3    PART 4    PART 5    



PART 6    PART 7    PART 8    PART 9    PART 10   



PART 11    PART 12    PART 13    PART 14




ไม่มีความคิดเห็น:

แสดงความคิดเห็น

แสดงความคิดเห็น