[Mini-HD] Mercenaries (2011) หน่วยจู่โจมคนมหาประลัย [720p][เสียง ไทย-อังกฤษ][บรรยาย ไทย-อังกฤษ]






ดาวน์โหลดหนังฟรี / Free Movie Hits





Mercenaries (2011)หน่วยจู่โจมคนมหาประลัย| 3.51GB


เรื่องย่อ

              แอนดี้ มาร์โลว์ เป็นอดีตทหาร S.A.S. แห่งอังกฤษ เขาแฝงตัวทำงานอยู่ที่ที่มั่นและ.คอยสังเกตการณ์ในบอลข่าน หลังการรัฐประหารเป็นผลให้เกิดการลอบสังหารประธานาธิบดีของเซอร์เบียรัฐประหารเกิดขึ้นเพราะ โอโลเดน แคร็กโควิก อดีตผู้บังคับบัญชาของกองทหารโครเอเชียและ.เป็นอาชญากรสงครามที่ทางการต้องการตัว ในช่วงที่เกิดความโกลาหล กองทหารของ โอโลเดน เข้าโจมตีสถานฑูตของสหรัฐฯ และ.เข้าจับกุมเอกอัครราชฑูตและ.ผู้ช่วยของเขา การตัดสินใจนี้ถูกส่งไปใน Mercenaries เพื่อปฏิบัติภารกิจลับสุดยอด

General
Unique ID: 234202580969746261322636010357122564101 (0xB031C6C07656C654958A5CFFA8AA8005)
Complete name: M.seed-loadmovie.blogspot.com.mkv
Format : Matroska
Format version : Version 2
File size: 3.51 GiB
Duration : 1h 36mn
Overall bit rate : 5 188 Kbps
Encoded date : UTC 2012-08-02 10:32:17
Writing application: mkvmerge v3.4.0 ('Rapunzel') built on May 15 2010 09:38:20
Writing library: libebml v0.8.0 + libmatroska v0.9.0

Video
ID : 1
Format : AVC
Format/Info: Advanced Video Codec
Format profile : High@L4.1
Format settings, CABAC : Yes
Format settings, ReFrames: 4 frames
Codec ID : V_MPEG4/ISO/AVC
Duration : 1h 36mn
Bit rate : 3 319 Kbps
Nominal bit rate : 3 500 Kbps
Width: 1 280 pixels
Height : 544 pixels
Display aspect ratio : 2.35:1
Frame rate mode: Variable
Frame rate : 24.000 fps
Color space: YUV
Chroma subsampling : 4:2:0
Bit depth: 8 bits
Scan type: Progressive
Bits/(Pixel*Frame) : 0.199
Stream size: 2.25 GiB (64%)
Title: Encode by softerman
Writing library: x264 core 116 r2019M 9cc407d
Encoding settings: cabac=1 / ref=5 / deblock=1:0:0 / analyse=0x3:0x133 / me=dia / subme=7 / psy=1 / psy_rd=1.00:0.20 / mixed_ref=1 / me_range=16 / chroma_me=1 / trellis=0 / 8x8dct=1 / cqm=0 / deadzone=21,11 / fast_pskip=1 / chroma_qp_offset=-2 / threads=20 / sliced_threads=0 / nr=0 / decimate=1 / interlaced=0 / bluray_compat=0 / constrained_intra=0 / bframes=5 / b_pyramid=1 / b_adapt=0 / b_bias=0 / direct=3 / weightb=1 / open_gop=0 / weightp=0 / keyint=240 / keyint_min=24 / scenecut=40 / intra_refresh=0 / rc_lookahead=50 / rc=abr / mbtree=1 / bitrate=3500 / ratetol=1.0 / qcomp=0.60 / qpmin=10 / qpmax=51 / qpstep=4 / ip_ratio=1.40 / aq=1:1.00
Language : English
Default: Yes
Forced : No

Audio #1
ID : 2
Format : DTS
Format/Info: Digital Theater Systems
Codec ID : A_DTS
Duration : 1h 36mn
Bit rate mode: Constant
Bit rate : 1 510 Kbps
Channel(s) : 6 channels
Channel positions: Front: L C R, Side: L R, LFE
Sampling rate: 48.0 KHz
Bit depth: 24 bits
Compression mode : Lossy
Delay relative to video: 11ms
Stream size: 1.02 GiB (29%)
Title: DTS
Language : English
Default: No
Forced : No

Audio #2
ID : 3
Format : AC-3
Format/Info: Audio Coding 3
Mode extension : CM (complete main)
Format settings, Endianness: Big
Codec ID : A_AC3
Duration : 1h 36mn
Bit rate mode: Constant
Bit rate : 256 Kbps
Channel(s) : 6 channels
Channel positions: Front: L C R, Side: L R, LFE
Sampling rate: 48.0 KHz
Bit depth: 16 bits
Compression mode : Lossy
Stream size: 177 MiB (5%)
Title: [THAI AC3 FROM DVD MASTER]
Language : Thai
Default: Yes
Forced : No

Text #1
ID : 4
Format : VobSub
Muxing mode: zlib
Codec ID : S_VOBSUB
Codec ID/Info: The same subtitle format used on DVDs
Title: [SUB THAI FROM DVD MASTER]
Language : Thai
Default: Yes
Forced : No

Text #2
ID : 5
Format : VobSub
Muxing mode: zlib
Codec ID : S_VOBSUB
Codec ID/Info: The same subtitle format used on DVDs
Title: [SUB THAI FROM DVD MASTER] UNDER
Language : Thai
Default: No
Forced : No

Text #3
ID : 6
Format : VobSub
Muxing mode: zlib
Codec ID : S_VOBSUB
Codec ID/Info: The same subtitle format used on DVDs
Title: [SUB ENG FROM DVD MASTER]
Language : English
Default: No
Forced : No








PART/ 200MB MKV



PART 1   PART 2   PART 3   PART 4   PART 5    


PART 6   PART 7   PART 8   PART 9   PART 10   



PART 11   PART 12   PART 13   PART 14   PART 15   



PART 16     PART 17   PART 18   PART 19






ไม่มีความคิดเห็น:

แสดงความคิดเห็น

แสดงความคิดเห็น