[Super Mini-HD] A Thousand Words (2012) ปาฏิหาริย์ 1000 คำ กำราบคนขี้จุ๊ [720p][Audio AC3 5.1:Th][Sub:No][1.31GB]








ดาวน์โหลดหนังฟรี / Free Movie Hits





A Thousand Words (2012)  ปาฏิหาริย์ 1000 คำ กำราบคนขี้จุ๊ | 1.31GB


เรื่องย่อ

               ยอดชาย ฝีปากจรวด แจ็ค แม็คคอล (เอ๊ดดี้ เมอฟี่) ที่พูดได้สารพัดเพื่อให้ตัวเองได้ประโยชน์ แต่หลังจากที่เขาไปพูดพล่อยๆกับปรามาจารย์กูรูผู้หนึ่ง แจ็คพบว่าชีวิตของเขาขึ้นอยู่กับต้นไม้วิเศษที่มีใบไม้ 1   ,   000 ใบ ซึ่งแต่ละใบจะหลุดร่วงไปกับคำทุกคำที่ออกมาจากปาก เวลานี้แจ็คต้องหยุดพูดและใช้วิธีบอกใบ้ในการสื่อสาร ถ้าหากไม่อยากตายไปพร้อมกับต้นไม้ใบโกร๋น! มาดูกันสิว่าทำไม A Thousand Words ถึงได้หรรษา ชวนให้อารมณ์ดีและมีครบทั้ง "นักแสดงชั้นยอด มุขตลกชั้นเยี่ยม และเปี่ยมด้วยความสนุกตลอดทั้งเรื่อง!"

General
Complete name: AW_seed-loadmovie.blogspot.com.avi
Format : AVI
Format/Info: Audio Video Interleave
File size: 1.31 GiB
Duration : 1h 31mn
Overall bit rate : 2 057 Kbps

Video
ID : 0
Format : MPEG-4 Visual
Format profile : Advanced Simple@L5
Format settings, BVOP: 2
Format settings, QPel: No
Format settings, GMC : No warppoints
Format settings, Matrix: Default (H.263)
Codec ID : XVID
Codec ID/Hint: XviD
Duration : 1h 31mn
Bit rate : 1 599 Kbps
Width: 720 pixels
Height : 304 pixels
Display aspect ratio : 2.35:1
Frame rate : 23.976 fps
Color space: YUV
Chroma subsampling : 4:2:0
Bit depth: 8 bits
Scan type: Progressive
Compression mode : Lossy
Bits/(Pixel*Frame) : 0.305
Stream size: 1.02 GiB (78%)
Writing library: XviD 1.2.1 (UTC 2008-12-04)

Audio
ID : 1
Format : AC-3
Format/Info: Audio Coding 3
Mode extension : CM (complete main)
Format settings, Endianness: Big
Codec ID : 2000
Duration : 1h 31mn
Source duration: 1h 31mn
Bit rate mode: Constant
Bit rate : 448 Kbps
Channel(s) : 6 channels
Channel positions: Front: L C R, Side: L R, LFE
Sampling rate: 48.0 KHz
Bit depth: 16 bits
Compression mode : Lossy
Stream size: 293 MiB (22%)
Alignment: Aligned on interleaves
Interleave, duration : 42 ms (1.00 video frame)








PART/ 200MB AVI



PART 1   PART 2   PART 3   



PART 4   PART 5    PART 6   PART 7





ไม่มีความคิดเห็น:

แสดงความคิดเห็น

แสดงความคิดเห็น